蓝光原盘信息网

 找回密码
 立即注册
 
查看: 26|回复: 5

[动画片 • 中文版] 玩具总动员.Toy.Story.1995.Blu-ray.UHD.2160p.HEVC.Atmos.TrueHD7.1-DIY@TTG

[复制链接]
  • TA的每日心情
    奋斗
    2020-3-10 02:48
  • 签到天数: 14 天

    连续签到: 1 天

    [LV.3]偶尔看看II

    发表于 2020-3-25 07:18:34 | 显示全部楼层 |阅读模式
    玩具总动员.Toy.Story.1995.Blu-ray.UHD.2160p.HEVC.Atmos.TrueHD7.1-DIY@TTG 57.86G

    制作說明:
    源盤: BeyondHD
    字幕: 台版R3官方中字由 TTG R3字幕組抽取TW DVD並OCR;若提取字幕务必注明来源!
    追加简繁中字,切换调用.
    国粤语三条配音抽取取自Toy Story I II III 720p BluRay x264 DTS-WiKi
    使用Scenarist UHD v2符合UHD BD Spec 规范平台全盘重灌.
    提取素材以供制作发布者请务必注明素材来源
    仅供测试用,禁止商用

    Win10 Pro 1903 18362.145
    PowerDVD19.0.1515.62/DVDFab Player 5.0.2.8 PC 平台选单导航播放测试正常.

    修正上版本OPPO203/205 播放右键选择新增素材黑屏问题
    本片经 芝杜X9S、亿格瑞A5、海美迪H1000、H10四代、开博尔Q10plus 播放器播放顺利通过





    ◎译  名 玩具总动员 / 反斗奇兵(港) / 玩具的故事
    ◎片  名 Toy Story
    ◎年  代 1995
    ◎产  地 美国
    ◎类  别 喜剧 / 动画 / 家庭
    ◎语  言 英语
    ◎上映日期 1995-11-22(美国)
    ◎IMDb评分  8.3/10 from 840823 users
    ◎IMDb链接  https://www.imdb.com/title/tt0114709
    ◎豆瓣评分 8.4/10 from 256467 users
    ◎豆瓣链接 https://movie.douban.com/subject/1291575/
    ◎片  长 81分钟
    ◎导  演 约翰·拉塞特 John Lasseter
    ◎编  剧 乔斯·韦登 Joss Whedon / 安德鲁·斯坦顿 Andrew Stanton / Joel Cohen / Alec Sokolow
    ◎主  演 汤姆·汉克斯 Tom Hanks
            蒂姆·艾伦 Tim Allen
            唐·里克斯 Don Rickles
            吉姆·法尼 Jim Varney

    ◎标  签 动画 | 美国 | 迪斯尼 | pixar | 玩具总动员 | 动画片 | DISNEY | 美国电影

    ◎简  介  
      小主人家境富裕,拥有一屋的玩具。其中他最爱的是牛仔玩偶胡迪,胡迪因此成为众玩具的“老大”。当小主人出门在外时,一屋的玩具自成世界,过着自己的生活。一天,小主人带回了一个新的玩意:太空战警巴斯光年。巴斯光年长相新奇,功能先进,令小主人爱不释手,威胁到了胡迪的地位。胡迪千方百计要赶走巴斯,一不小心二人一起掉出了房间窗口外,邻居的恶狗在狂吠,邻居的小孩是一个玩具虐待狂,胡迪巴斯能不能化敌为友,消灾解难?

    ◎获奖情况  
      第68届奥斯卡金像奖(1996)
      最佳原创剧本(提名) 乔斯·韦登 / 约翰·拉塞特 / 彼特·道格特 / 乔·兰福特 / 安德鲁·斯坦顿 / 乔尔·科恩 / 亚历克·索科洛
      音乐/喜剧片最佳原创配乐(提名) 兰迪·纽曼
      最佳原创歌曲(提名) 兰迪·纽曼
      特别成就奖 约翰·拉塞特
      第24届动画安妮奖(1996)
      最佳动画长片
      最佳导演 约翰·拉塞特
      最佳编剧 乔斯·韦登 / 安德鲁·斯坦顿 / 亚历克·索科洛 / 乔尔·科恩
      最佳配音(提名) 汤姆·汉克斯
      最佳配乐 兰迪·纽曼
      最佳制作 邦妮·阿诺德 / Ralph Guggenheim
      最佳艺术指导 拉夫·埃格尔斯顿
      最佳个人成就 彼特·道格特
      最佳动画技术成果

    1. DISC INFO:
    2. Disc Title:     Toy Story - Ultra HD
    3. Disc Label:     TOY_STORY
    4. Disc Size:      62,099,512,479 bytes
    5. Protection:     AACS2
    6. Extras:         Ultra HD, BD-Java
    7. BDInfo:         0.7.5.5

    8. PLAYLIST REPORT:
    9. Name:                   00800.MPLS
    10. Length:                 1:21:06.027 (h:m:s.ms)
    11. Size:                   48,311,074,560 bytes
    12. Total Bitrate:          79.43 Mbps

    13. VIDEO:
    14. Codec                   Bitrate             Description     
    15. -----                   -------             -----------     
    16. MPEG-H HEVC Video       58103 kbps          2160p / 23.976 fps / 16:9 / Main 10 @ Level 5.1 @ High / 10 bits / HDR10 / BT.2020

    17. AUDIO:
    18. Codec                           Language        Bitrate         Description     
    19. -----                           --------        -------         -----------     
    20. Dolby TrueHD/Atmos Audio        English         8275 kbps       7.1 / 48 kHz /  7635 kbps / 24-bit (AC3 Embedded: 5.1-EX / 48 kHz /   640 kbps / DN -27dB)
    21. Dolby Digital EX Audio          English         640 kbps        5.1-EX / 48 kHz /   640 kbps / DN -27dB
    22. Dolby Digital Audio             English         320 kbps        2.0 / 48 kHz /   320 kbps / DN -27dB
    23. Dolby Digital Audio             English         320 kbps        2.0 / 48 kHz /   320 kbps / DN -27dB
    24. Dolby Digital EX Audio          French          640 kbps        5.1-EX / 48 kHz /   640 kbps / DN -27dB
    25. Dolby Digital EX Audio          Spanish         640 kbps        5.1-EX / 48 kHz /   640 kbps / DN -27dB
    26. DTS-HD Master Audio             Japanese        3941 kbps       5.1-ES / 48 kHz /  3941 kbps / 24-bit (DTS Core: 5.1-ES / 48 kHz /  1509 kbps / 24-bit / DN -4dB)
    27. Dolby Digital EX Audio          Chinese         384 kbps        5.1-EX / 48 kHz /   384 kbps / DN -27dB  國語(台配)
    28. Dolby Digital EX Audio          Chinese         384 kbps        5.1-EX / 48 kHz /   384 kbps / DN -27dB  粤语
    29. Dolby Digital Audio             Chinese         448 kbps        5.1 / 48 kHz /   448 kbps / DN -27dB  普通话

    30. SUBTITLES:
    31. Codec                           Language        Bitrate         Description     
    32. -----                           --------        -------         -----------     
    33. Presentation Graphics           English         52.656 kbps                     
    34. Presentation Graphics           English         41.430 kbps                     
    35. Presentation Graphics           French          30.696 kbps                     
    36. Presentation Graphics           Spanish         38.911 kbps                     
    37. Presentation Graphics           Japanese        24.919 kbps                     
    38. Presentation Graphics           Japanese        0.016 kbps                     
    39. Presentation Graphics           Chinese         25.385 kbps   对应台配发音r3简体                  
    40. Presentation Graphics           Chinese         29.353 kbps   对应台配发音r3繁體                    

    41. FILES:
    42. Name            Time In         Length          Size            Total Bitrate   
    43. ----            -------         ------          ----            -------------   
    44. 00055.M2TS      0:00:00.000     0:02:03.081     1,177,903,296   76,509         
    45. 00056.M2TS      0:02:03.081     0:02:14.259     1,332,222,912   79,333         
    46. 00057.M2TS      0:04:17.340     0:13:11.081     7,706,516,736   77,926         
    47. 00058.M2TS      0:17:28.422     0:00:20.478     177,476,928     69,050         
    48. 00059.M2TS      0:17:48.901     0:08:48.569     5,202,124,224   78,723         
    49. 00066.M2TS      0:26:37.470     0:00:18.852     188,415,360     79,603         
    50. 00067.M2TS      0:26:56.322     0:19:38.135     11,947,910,208  81,125         
    51. 00068.M2TS      0:46:34.458     0:00:50.800     513,040,704     80,660         
    52. 00069.M2TS      0:47:25.259     0:29:42.405     17,689,072,128  79,390         
    53. 00070.M2TS      1:17:07.664     0:03:33.004     2,144,361,984   80,506         
    54. 00072.M2TS      1:20:40.669     0:00:25.358     232,030,080     72,959
    复制代码

    eD2K Link
    游客,如果您要查看本帖隐藏内容请回复

    本帖子中包含更多资源

    您需要 登录 才可以下载或查看,没有帐号?立即注册

    x
    回复

    使用道具 举报

     成长值: 2520

  • TA的每日心情
    开心
    17 小时前
  • 签到天数: 126 天

    连续签到: 91 天

    [LV.7]常住居民III

    发表于 2020-3-25 07:41:07 | 显示全部楼层
    强烈支持楼主ing……
    回复 支持 反对

    使用道具 举报

  • TA的每日心情

    8 小时前
  • 签到天数: 34 天

    连续签到: 19 天

    [LV.5]常住居民I

    发表于 2020-3-25 09:20:17 | 显示全部楼层
    强烈支持楼主ing……
    回复 支持 反对

    使用道具 举报

  • TA的每日心情
    慵懒
    17 小时前
  • 签到天数: 83 天

    连续签到: 71 天

    [LV.6]常住居民II

    发表于 2020-3-25 11:36:55 | 显示全部楼层
    谢谢楼主分享精彩影片
    回复 支持 反对

    使用道具 举报

  • TA的每日心情
    开心
    9 小时前
  • 签到天数: 79 天

    连续签到: 33 天

    [LV.6]常住居民II

    发表于 2020-3-26 08:12:07 | 显示全部楼层
    看到这帖子真是高兴!
    回复 支持 反对

    使用道具 举报

  • TA的每日心情
    奋斗
    17 小时前
  • 签到天数: 64 天

    连续签到: 6 天

    [LV.6]常住居民II

    发表于 7 天前 | 显示全部楼层
    感恩无私的分享与奉献
    回复 支持 反对

    使用道具 举报

    您需要登录后才可以回帖 登录 | 立即注册

    本版积分规则

    QQ|Archiver|手机版|小黑屋|蓝光原盘信息网 ( 粤ICP备19078645号-2 )

    GMT+8, 2020-4-3 17:47 , Processed in 0.158593 second(s), 25 queries .

    Powered by Discuz! X3.4

    Copyright © 2001-2020, Tencent Cloud.

    快速回复 返回顶部 返回列表