蓝光原盘信息网

 找回密码
 立即注册
 
查看: 16|回复: 5

[动画片 • 中文版] 玩具总动员2.Toy.Story.2.1999.Blu-ray.UHD.2160p.HEVC.Atmos.TrueHD7.1-DIY@TTG

[复制链接]
  • TA的每日心情
    奋斗
    2020-3-10 02:48
  • 签到天数: 14 天

    连续签到: 1 天

    [LV.3]偶尔看看II

    发表于 4 天前 | 显示全部楼层 |阅读模式
    玩具总动员2.Toy.Story.2.1999.Blu-ray.UHD.2160p.HEVC.Atmos.TrueHD7.1-DIY@TTG 53.98G

    制作說明:
    源盤: BeyondHD
    字幕: 台版R3官方中字由 TTG R3字幕組抽取TW DVD並OCR;若提取字幕务必注明来源!
    追加简繁中字,切换调用.
    国粤语三条配音抽取取自[玩具总动员123的3D原盘合集]
    使用Scenarist UHD v2符合UHD BD Spec 规范平台全盘重灌.
    提取素材以供制作发布者请务必注明素材来源
    仅供测试用,禁止商用

    Win10 Pro 1903 18362.145
    PowerDVD19.0.1515.62/DVDFab Player 5.0.2.8 PC 平台选单导航播放测试正常.欢迎反馈bug....

    第一部修正黑屏Bug的问题稍后再上传......
    本片经 芝杜X9S、亿格瑞A5、海美迪H1000、H10四代、开博尔Q10plus 播放器播放顺利通过





    ◎译  名 玩具总动员2 / 反斗奇兵2(港) / 反斗奇兵续集 / 玩具的故事2
    ◎片  名 Toy Story 2
    ◎年  代 1999
    ◎产  地 美国
    ◎类  别 喜剧 / 动画 / 奇幻 / 冒险
    ◎语  言 英语
    ◎上映日期 1999-11-24(美国)
    ◎IMDb评分  7.9/10 from 501402 users
    ◎IMDb链接  https://www.imdb.com/title/tt0120363
    ◎豆瓣评分 8.3/10 from 158904 users
    ◎豆瓣链接 https://movie.douban.com/subject/1291574/
    ◎片  长 92分钟
    ◎导  演 约翰·拉塞特 John Lasseter / 艾什·布兰农 Ash Brannon / 李·昂克里奇 Lee Unkrich
    ◎编  剧 约翰·拉塞特 John Lasseter / 彼特·道格特 Pete Docter / 艾什·布兰农 Ash Brannon / 安德鲁·斯坦顿 Andrew Stanton / 萧丽塔 Rita Hsiao / 道格·钱伯林 Doug Chamberlin / 克里斯·韦伯 Chris Webb
    ◎主  演 汤姆·汉克斯 Tom Hanks
            蒂姆·艾伦 Tim Allen
            琼·库萨克 Joan Cusack
            凯尔希·格兰莫 Kelsey Grammer
            唐·里克斯 Don Rickles
            吉姆·法尼 Jim Varney
            华莱士·肖恩 Wallace Shawn
            约翰·拉岑贝格 John Ratzenberger
            安妮·波茨 Annie Potts
            韦恩·奈特 Wayne Knight
            约翰·莫里斯 John Morris
            劳里·梅特卡夫 Laurie Metcalf
            爱丝黛儿·哈里斯 Estelle Harris
            李·厄米 R. Lee Ermey
            裘蒂·班森 Jodi Benson

    ◎标  签 动画 | 美国 | 迪斯尼 | pixar | 动画片 | 1999 | DISNEY | 美国电影

    ◎简  介  
      自从上一集牛仔伍迪救回巴斯光年之后,他一直和其他玩具一起快乐的生活在小主人家。一次,小主人参加夏令营去了,伍迪因为破旧而没被带去。留在家里的伍迪恰巧被一个玩具收藏家发现了,认为他是近代最具代表性的玩具。于是将伍迪被偷了出来放在颇富盛名的文化博物馆内展览。在家里所有的玩具 都很担心伍迪,因此巴斯光年自告奋勇去寻找伍迪,但是当他们发现伍迪在展览馆时, 伍迪却似乎不再愿意回去过那平凡的生活……

    ◎获奖情况  
      第72届奥斯卡金像奖(2000)
      最佳原创歌曲(提名) 兰迪·纽曼
      第28届动画安妮奖(2000)
      最佳动画长片
      最佳导演 艾什·布兰农 / 约翰·拉塞特 / 李·昂克里奇
      最佳编剧 安德鲁·斯坦顿 / 道格·钱伯林 / 彼特·道格特 / 萧丽塔 / 艾什·布兰农 / 克里斯·韦伯 / 约翰·拉塞特
      最佳男配音 蒂姆·艾伦
      最佳女配音 琼·库萨克
      最佳配乐 兰迪·纽曼
      最佳分镜 乔·兰福特 / Dan Jeup
      最佳艺术指导(提名) William Cone / Jim Pearson
      最佳动画角色(提名) 道格·斯威特兰德

    1. DISC INFO:
    2. Disc Title:     TOY_STORY_2
    3. Disc Size:      57,963,575,296 bytes
    4. Protection:     AACS2
    5. Extras:         Ultra HD, BD-Java
    6. BDInfo:         0.7.5.3 (compatible layout created by DVDFab 11.0.3.4)

    7. PLAYLIST REPORT:
    8. Name:                   00800.MPLS  
    9. Length:                 1:32:24.372 (h:m:s.ms)
    10. Size:                   49,042,231,296 bytes
    11. Total Bitrate:          70.76 Mbps

    12. VIDEO:
    13. Codec                   Bitrate             Description     
    14. -----                   -------             -----------     
    15. MPEG-H HEVC Video       50663 kbps          2160p / 23.976 fps / 16:9 / Main 10 @ Level 5.1 @ High / 4:2:0 / 10 bits / HDR10 / BT.2020 /

    16. AUDIO:
    17. Codec                           Language        Bitrate         Description     
    18. -----                           --------        -------         -----------     
    19. Dolby TrueHD/Atmos Audio        English         7700 kbps       7.1-Atmos / 48 kHz / 7700 kbps / 24-bit (AC3 Core: 5.1-EX / 48 kHz / 640 kbps)
    20. Dolby Digital EX Audio          English         640 kbps        5.1-EX / 48 kHz / 640 kbps
    21. Dolby Digital Audio             English         320 kbps        2.0 / 48 kHz / 320 kbps
    22. Dolby Digital Audio             English         320 kbps        2.0 / 48 kHz / 320 kbps
    23. Dolby Digital EX Audio          French          640 kbps        5.1-EX / 48 kHz / 640 kbps
    24. Dolby Digital EX Audio          Spanish         640 kbps        5.1-EX / 48 kHz / 640 kbps
    25. DTS-HD Master Audio             Japanese        3776 kbps       5.1 / 48 kHz / 3776 kbps / 24-bit (DTS Core: 5.1-ES / 48 kHz / 1509 kbps / 24-bit)
    26. Dolby Digital Audio             Chinese         384 kbps        5.1 / 48 kHz / 384 kbps
    27. Dolby Digital Audio             Chinese         384 kbps        5.1 / 48 kHz / 384 kbps
    28. Dolby Digital Audio             Chinese         384 kbps        2.0 / 48 kHz / 384 kbps

    29. SUBTITLES:
    30. Codec                           Language        Bitrate         Description     
    31. -----                           --------        -------         -----------     
    32. Presentation Graphics           English         47.94 kbps                     
    33. Presentation Graphics           English         38.365 kbps                     
    34. Presentation Graphics           French          35.88 kbps                     
    35. Presentation Graphics           Spanish         37.727 kbps                     
    36. Presentation Graphics           Japanese        24.679 kbps                     
    37. Presentation Graphics           Japanese        0.131 kbps                     
    38. Presentation Graphics           Chinese         25.372 kbps                     
    39. Presentation Graphics           Chinese         29.291 kbps                     

    40. FILES:
    41. Name            Time In         Length          Size            Total Bitrate   
    42. ----            -------         ------          ----            -------------   
    43. 00055.M2TS      0:00:00.000     0:00:45.336     385,812,480     68,079 kbps     
    44. 00056.M2TS      0:00:45.336     0:00:52.844     407,316,480     61,662 kbps     
    45. 00057.M2TS      0:01:38.181     0:02:02.956     1,098,264,576   71,457 kbps     
    46. 00058.M2TS      0:03:41.137     0:00:44.461     376,209,408     67,692 kbps     
    47. 00059.M2TS      0:04:25.598     0:13:45.449     7,309,148,160   70,837 kbps     
    48. 00060.M2TS      0:18:11.048     0:00:26.860     235,579,392     70,164 kbps     
    49. 00061.M2TS      0:18:37.908     0:13:55.584     7,370,170,368   70,562 kbps     
    50. 00071.M2TS      0:32:33.493     0:00:33.116     288,067,584     69,589 kbps     
    51. 00073.M2TS      0:33:06.609     0:06:58.876     3,700,697,088   70,678 kbps     
    52. 00074.M2TS      0:40:05.486     0:00:40.290     355,424,256     70,572 kbps     
    53. 00075.M2TS      0:40:45.776     0:02:15.385     1,191,819,264   70,425 kbps     
    54. 00076.M2TS      0:43:01.161     0:00:29.154     256,727,040     70,446 kbps     
    55. 00077.M2TS      0:43:30.315     0:07:18.396     3,881,601,024   70,832 kbps     
    56. 00078.M2TS      0:50:48.712     0:00:45.420     398,776,320     70,237 kbps     
    57. 00079.M2TS      0:51:34.132     0:33:35.346     17,950,347,264  71,254 kbps     
    58. 00080.M2TS      1:25:09.479     0:00:39.330     357,212,160     72,657 kbps     
    59. 00081.M2TS      1:25:48.810     0:06:35.561     3,479,058,432   70,361 kbps
    复制代码

    eD2K Link
    游客,如果您要查看本帖隐藏内容请回复

    本帖子中包含更多资源

    您需要 登录 才可以下载或查看,没有帐号?立即注册

    x
    回复

    使用道具 举报

  • TA的每日心情

    4 天前
  • 签到天数: 92 天

    连续签到: 3 天

    [LV.6]常住居民II

    发表于 4 天前 | 显示全部楼层
    楼主加油,我们都看好你哦。
    回复 支持 反对

    使用道具 举报

  • TA的每日心情
    郁闷
    6 小时前
  • 签到天数: 29 天

    连续签到: 14 天

    [LV.4]偶尔看看III

    发表于 4 天前 | 显示全部楼层
    强烈支持楼主ing……
    回复 支持 反对

    使用道具 举报

     成长值: 2445

  • TA的每日心情
    开心
    6 小时前
  • 签到天数: 121 天

    连续签到: 86 天

    [LV.7]常住居民III

    发表于 4 天前 | 显示全部楼层
    强烈支持楼主ing……
    回复 支持 反对

    使用道具 举报

  • TA的每日心情
    奋斗
    昨天 12:32
  • 签到天数: 77 天

    连续签到: 65 天

    [LV.6]常住居民II

    发表于 4 天前 | 显示全部楼层
    谢谢楼主分享精彩影片
    回复 支持 反对

    使用道具 举报

  • TA的每日心情
    开心
    昨天 09:51
  • 签到天数: 73 天

    连续签到: 27 天

    [LV.6]常住居民II

    发表于 3 天前 | 显示全部楼层
    真是碎肉盘
    回复 支持 反对

    使用道具 举报

    您需要登录后才可以回帖 登录 | 立即注册

    本版积分规则

    QQ|Archiver|手机版|小黑屋|蓝光原盘信息网 ( 粤ICP备19078645号-2 )

    GMT+8, 2020-3-29 06:57 , Processed in 0.151863 second(s), 25 queries .

    Powered by Discuz! X3.4

    Copyright © 2001-2020, Tencent Cloud.

    快速回复 返回顶部 返回列表