蓝光原盘信息网

 找回密码
 立即注册
 
查看: 21|回复: 7

[动画片 • 中文版] 玩具总动员3.Toy.Story.3.2010.Blu-ray.UHD.2160p.HEVC.Atmos.TrueHD7.1-DIY@TTG

[复制链接]
  • TA的每日心情
    奋斗
    2020-3-10 02:48
  • 签到天数: 14 天

    连续签到: 1 天

    [LV.3]偶尔看看II

    发表于 4 天前 | 显示全部楼层 |阅读模式
    玩具总动员3.Toy.Story.3.2010.Blu-ray.UHD.2160p.HEVC.Atmos.TrueHD7.1-DIY@TTG 51.73G

    制作說明:
    源盤: BeyondHD
    字幕: 台版R3官方中字由 TTG R3字幕組抽取TW DVD並OCR;若提取字幕务必注明来源!
    追加r3简繁中字,切换调用.
    国/粤/普通话三条配音抽取取自[玩具总动员123的2D+3D合集] .切换调用.
    使用Scenarist UHD v2符合UHD BD Spec 规范平台全盘重灌.
    提取素材以供制作发布者请务必注明素材来源
    仅供测试用,禁止商用

    Win10 Pro 1903 18362.175
    PowerDVD19.0.1807.62/DVDFab Player 5.0.2.8 PC 平台选单导航播放测试正常.
    肉酱盘太碎....有bug 请反馈

    本片经 芝杜X9S、亿格瑞A5、海美迪H1000、H10四代、开博尔Q10plus 播放器播放顺利通过





    ◎译  名 玩具总动员3 / 反斗奇兵3(港) / 玩具的故事3
    ◎片  名 Toy Story 3
    ◎年  代 2010
    ◎产  地 美国
    ◎类  别 喜剧 / 动画 / 奇幻 / 冒险
    ◎语  言 英语 / 西班牙语
    ◎上映日期 2010-06-16(中国大陆) / 2010-06-18(美国)
    ◎IMDb评分  8.3/10 from 721503 users
    ◎IMDb链接  https://www.imdb.com/title/tt0435761
    ◎豆瓣评分 8.8/10 from 340999 users
    ◎豆瓣链接 https://movie.douban.com/subject/1858711/
    ◎片  长 103分钟
    ◎导  演 李·昂克里奇 Lee Unkrich
    ◎编  剧 迈克尔·阿恩特 Michael Arndt / 约翰·拉塞特 John Lasseter / 安德鲁·斯坦顿 Andrew Stanton / 李·昂克里奇 Lee Unkrich
    ◎主  演 汤姆·汉克斯 Tom Hanks
            蒂姆·艾伦 Tim Allen
            琼·库萨克 Joan Cusack
            尼德·巴蒂 Ned Beatty
            唐·里克斯 Don Rickles
            迈克尔·基顿 Michael Keaton

    ◎标  签 动画 | 美国 | Pixar | 迪斯尼 | 成长 | 感人 | 喜剧 | 3D

    ◎简  介  
      距上一次的冒险已经过去11个年头,转眼间安迪(约翰·莫里斯 John Morris 配音)变成了17岁的阳光男孩。这年夏天,安迪即将开始大学生活,他必须将自己的房间收拾整齐留给妹妹。此前,伍迪(汤姆·汉克斯 Tom Hanks 配音)与巴斯光年(蒂姆·艾伦 Tim Allen 配音)等玩具一直期待安迪再和他们玩耍,但是随着岁月的流逝,他们被冷落在箱子里很久了。安迪十分珍惜这些童年的玩伴,于是准备将他们收在阁楼。谁曾想,妈妈却把玩具们当作废物扔到街道上。玩具们误解了安迪,于是愤然出走,宁可被捐赠到阳光之家幼儿园。
      伍迪尽力劝解大家,却收效甚微,只得独自黯然离开。巴斯光年他们原本以为将重新回到往昔的快乐时光,不料却陷入一场阴谋之中……

    ◎获奖情况  
      第83届奥斯卡金像奖(2011)
      最佳影片(提名) 达拉·K·安德森
      最佳改编剧本(提名) 安德鲁·斯坦顿 / 迈克尔·阿恩特 / 李·昂克里奇 / 约翰·拉塞特
      最佳动画长片 李·昂克里奇
      最佳音效剪辑(提名) 迈克尔·席维斯 / Tom Myers
      最佳原创歌曲 兰迪·纽曼
      第68届金球奖(2011)
      电影类 最佳动画长片
      第34届日本电影学院奖(2011)
      最佳外语片(提名)
      第38届动画安妮奖(2011)
      最佳动画长片(提名)
      最佳导演(提名) 李·昂克里奇
      最佳编剧(提名) 迈克尔·阿恩特
      第20届MTV电影奖(2011)
      MTV电影奖 最佳反派(提名) 尼德·巴蒂
      第11届美国电影学会奖(2010)
      年度佳片
      第9届华盛顿影评人协会奖(2010)
      最佳影片(提名)
      最佳改编剧本(提名) 安德鲁·斯坦顿 / 迈克尔·阿恩特 / 李·昂克里奇 / 约翰·拉塞特
      最佳动画片
      最佳动画片(提名)
      第31届波士顿影评人协会奖(2010)
      最佳影片(提名)
      最佳动画片
      第15届圣地亚哥影评人协会奖(2010)
      最佳原创剧本(提名) 迈克尔·阿恩特
      最佳动画片
      第23届芝加哥影评人协会奖(2010)
      最佳改编剧本(提名) 迈克尔·阿恩特
      最佳动画片
      第44届堪萨斯影评人协会奖(2011)
      最佳动画片
      第10届凤凰城影评人协会奖(2010)
      最佳原创歌曲(提名) 兰迪·纽曼
      最佳动画片
      十佳影片
      第19届东南影评人协会奖(2010)
      最佳动画片
      十大佳片
      第12届美国青少年选择奖(2010)
      最佳动画片

    1. DISC INFO:
    2. Disc Title:     TOY_STORY_3
    3. Disc Size:      66,286,974,976 bytes
    4. Protection:     AACS2
    5. Extras:         Ultra HD, BD-Java
    6. BDInfo:         0.7.5.3 (compatible layout created by DVDFab 11.0.3.7)

    7. PLAYLIST REPORT:
    8. Name:                   00800.MPLS  
    9. Length:                 1:42:31.269 (h:m:s.ms)
    10. Size:                   45,129,922,560 bytes
    11. Total Bitrate:          58.69 Mbps

    12. VIDEO:
    13. Codec                   Bitrate             Description     
    14. -----                   -------             -----------     
    15. MPEG-H HEVC Video       40920 kbps          2160p / 23.976 fps / 16:9 / Main 10 @ Level 5.1 @ High / 4:2:0 / 10 bits / HDR10 / BT.2020 /

    16. AUDIO:
    17. Codec                           Language        Bitrate         Description     
    18. -----                           --------        -------         -----------     
    19. Dolby TrueHD/Atmos Audio        English         8043 kbps       7.1-Atmos / 48 kHz / 8043 kbps / 24-bit (AC3 Core: 5.1-EX / 48 kHz / 640 kbps)
    20. Dolby Digital Plus Audio        English         1024 kbps       7.1 / 48 kHz / 1024 kbps (AC3 Core: 5.1 / 48 kHz / 576 kbps ( Core: 5.1 / 48 kHz / 576 kbps))
    21. Dolby Digital EX Audio          English         640 kbps        5.1-EX / 48 kHz / 640 kbps
    22. Dolby Digital Audio             English         320 kbps        2.0 / 48 kHz / 320 kbps
    23. Dolby Digital Audio             English         320 kbps        2.0 / 48 kHz / 320 kbps
    24. Dolby Digital EX Audio          French          640 kbps        5.1-EX / 48 kHz / 640 kbps
    25. Dolby Digital EX Audio          Spanish         640 kbps        5.1-EX / 48 kHz / 640 kbps

    26. Dolby Digital EX Audio          Chinese         640 kbps        5.1-EX / 48 kHz / 640 kbps  國語(台配)
    27. Dolby Digital EX Audio          Chinese         640 kbps        5.1-EX / 48 kHz / 640 kbps  粤语
    28. Dolby Digital EX Audio          Chinese         640 kbps        5.1-EX / 48 kHz / 640 kbps  普通话

    29. SUBTITLES:
    30. Codec                           Language        Bitrate         Description     
    31. -----                           --------        -------         -----------     
    32. Presentation Graphics           English         46.841 kbps                     
    33. Presentation Graphics           French          39.467 kbps                     
    34. Presentation Graphics           Spanish         34.21 kbps   
    35.                
    36. Presentation Graphics           Chinese         20.789 kbps    对应台配发音r3简体                  
    37. Presentation Graphics           Chinese         24.07 kbps     对应台配发音r3繁體                  

    38. FILES:
    39. Name            Time In         Length          Size            Total Bitrate   
    40. ----            -------         ------          ----            -------------   
    41. 00055.M2TS      0:00:00.000     0:00:45.170     312,453,120     55,338 kbps     
    42. 00056.M2TS      0:00:45.170     0:00:27.569     197,492,736     57,308 kbps     
    43. 00057.M2TS      0:01:12.739     0:01:59.661     879,955,968     58,829 kbps     
    44. 00058.M2TS      0:03:12.400     0:00:18.643     137,072,640     58,818 kbps     
    45. 00059.M2TS      0:03:31.044     0:00:46.254     334,485,504     57,851 kbps     
    46. 00060.M2TS      0:04:17.298     0:00:12.595     89,788,416      57,027 kbps     
    47. 00061.M2TS      0:04:29.894     0:07:17.270     3,109,834,752   56,895 kbps     
    48. 00062.M2TS      0:11:47.164     0:01:23.208     587,501,568     56,485 kbps     
    49. 00063.M2TS      0:13:10.372     0:00:27.068     176,787,456     52,248 kbps     
    50. 00064.M2TS      0:13:37.441     0:00:49.424     351,449,088     56,886 kbps     
    51. 00065.M2TS      0:14:26.865     0:01:12.489     518,756,352     57,250 kbps     
    52. 00066.M2TS      0:15:39.354     0:00:21.813     161,826,816     59,349 kbps     
    53. 00067.M2TS      0:16:01.168     0:00:42.959     313,251,840     58,334 kbps     
    54. 00068.M2TS      0:16:44.127     0:01:24.542     601,178,112     56,887 kbps     
    55. 00069.M2TS      0:18:08.670     0:01:16.034     530,257,920     55,791 kbps     
    56. 00070.M2TS      0:19:24.705     0:00:31.114     226,000,896     58,108 kbps     
    57. 00073.M2TS      0:19:55.819     0:00:26.609     187,213,824     56,283 kbps     
    58. 00074.M2TS      0:20:22.429     0:00:42.459     307,722,240     57,980 kbps     
    59. 00071.M2TS      0:21:04.888     0:22:01.570     9,236,244,480   55,910 kbps     
    60. 00093.M2TS      0:43:06.458     0:01:31.132     656,609,280     57,639 kbps     
    61. 00094.M2TS      0:44:37.591     0:03:42.764     1,606,582,272   57,696 kbps     
    62. 00095.M2TS      0:48:20.355     0:00:33.867     239,812,608     56,647 kbps     
    63. 00096.M2TS      0:48:54.222     0:01:20.872     570,507,264     56,435 kbps     
    64. 00097.M2TS      0:50:15.095     0:02:01.204     878,137,344     57,960 kbps     
    65. 00098.M2TS      0:52:16.299     0:13:11.832     5,695,918,080   57,546 kbps     
    66. 00099.M2TS      1:05:28.132     0:00:29.195     207,230,976     56,783 kbps     
    67. 00100.M2TS      1:05:57.328     0:01:06.024     475,484,160     57,613 kbps     
    68. 00101.M2TS      1:07:03.352     0:01:37.847     706,007,040     57,722 kbps     
    69. 00102.M2TS      1:08:41.200     0:02:00.203     868,995,072     57,834 kbps     
    70. 00103.M2TS      1:10:41.403     0:01:29.547     646,920,192     57,794 kbps     
    71. 00104.M2TS      1:12:10.951     0:02:12.799     950,704,128     57,271 kbps     
    72. 00105.M2TS      1:14:23.750     0:00:22.814     162,975,744     57,148 kbps     
    73. 00106.M2TS      1:14:46.565     0:00:39.164     286,623,744     58,548 kbps     
    74. 00107.M2TS      1:15:25.729     0:00:56.848     423,825,408     59,642 kbps     
    75. 00108.M2TS      1:16:22.577     0:01:14.074     734,054,400     79,277 kbps     
    76. 00109.M2TS      1:17:36.651     0:00:57.182     570,040,320     79,750 kbps     
    77. 00110.M2TS      1:18:33.833     0:01:52.821     1,128,124,416   79,993 kbps     
    78. 00111.M2TS      1:20:26.654     0:00:21.271     213,983,232     80,477 kbps     
    79. 00112.M2TS      1:20:47.925     0:04:12.502     2,292,160,512   72,622 kbps     
    80. 00113.M2TS      1:25:00.428     0:04:24.305     1,876,267,008   56,790 kbps     
    81. 00114.M2TS      1:29:24.733     0:04:54.377     2,088,708,096   56,762 kbps     
    82. 00115.M2TS      1:34:19.111     0:01:35.720     705,638,400     58,974 kbps     
    83. 00116.M2TS      1:35:54.831     0:00:24.315     177,217,536     58,304 kbps     
    84. 00117.M2TS      1:36:19.147     0:00:23.773     172,437,504     58,026 kbps     
    85. 00118.M2TS      1:36:42.921     0:05:23.781     2,366,410,752   58,469 kbps     
    86. 00119.M2TS      1:42:06.703     0:00:24.566     169,273,344     55,123 kbps
    复制代码

    eD2K Link
    游客,如果您要查看本帖隐藏内容请回复

    本帖子中包含更多资源

    您需要 登录 才可以下载或查看,没有帐号?立即注册

    x
    回复

    使用道具 举报

  • TA的每日心情
    郁闷
    7 小时前
  • 签到天数: 29 天

    连续签到: 14 天

    [LV.4]偶尔看看III

    发表于 4 天前 | 显示全部楼层
    强烈支持楼主ing……
    回复 支持 反对

    使用道具 举报

  • TA的每日心情
    开心
    昨天 12:04
  • 签到天数: 15 天

    连续签到: 1 天

    [LV.4]偶尔看看III

    发表于 4 天前 | 显示全部楼层
    看到这帖子真是高兴!
    回复 支持 反对

    使用道具 举报

     成长值: 2445

  • TA的每日心情
    开心
    8 小时前
  • 签到天数: 121 天

    连续签到: 86 天

    [LV.7]常住居民III

    发表于 4 天前 | 显示全部楼层
    强烈支持楼主ing……
    回复 支持 反对

    使用道具 举报

  • TA的每日心情
    奋斗
    昨天 12:32
  • 签到天数: 77 天

    连续签到: 65 天

    [LV.6]常住居民II

    发表于 4 天前 | 显示全部楼层
    谢谢楼主分享精彩影片
    回复 支持 反对

    使用道具 举报

  • TA的每日心情

    4 天前
  • 签到天数: 1 天

    连续签到: 1 天

    [LV.1]初来乍到

    发表于 4 天前 | 显示全部楼层
    强烈支持楼主ing……
    回复 支持 反对

    使用道具 举报

  • TA的每日心情
    开心
    昨天 09:51
  • 签到天数: 73 天

    连续签到: 27 天

    [LV.6]常住居民II

    发表于 3 天前 | 显示全部楼层
    史上最碎肉的盘
    回复 支持 反对

    使用道具 举报

  • TA的每日心情
    慵懒
    昨天 13:18
  • 签到天数: 55 天

    连续签到: 55 天

    [LV.5]常住居民I

    发表于 3 天前 | 显示全部楼层
    强烈支持楼主ing……
    回复 支持 反对

    使用道具 举报

    您需要登录后才可以回帖 登录 | 立即注册

    本版积分规则

    QQ|Archiver|手机版|小黑屋|蓝光原盘信息网 ( 粤ICP备19078645号-2 )

    GMT+8, 2020-3-29 08:46 , Processed in 0.163432 second(s), 25 queries .

    Powered by Discuz! X3.4

    Copyright © 2001-2020, Tencent Cloud.

    快速回复 返回顶部 返回列表