蓝光原盘信息网

 找回密码
 立即注册
 
查看: 275|回复: 30

[中国香港] 倩女幽魂.A.Chinese.Ghost.Story.1987.CHN.Blu-ray.1080p.AVC.DTS-HD.MA5.1-MTeam

[复制链接]
  • TA的每日心情
    无聊
    2020-6-5 00:17
  • 签到天数: 21 天

    连续签到: 21 天

    [LV.4]偶尔看看III

    发表于 2020-5-29 11:56:31 | 显示全部楼层 |阅读模式
    倩女幽魂.A.Chinese.Ghost.Story.1987.HKG.Blu-ray.1080p.AVC.TrueHD7.1-HDRoad 21.32G
    倩女幽魂.A.Chinese.Ghost.Story.1987.HKG.Blu-ray.1080p.AVC.TrueHD7.1-DIY@TTG 23.46G
    倩女幽魂.A.Chinese.Ghost.Story.1987.CHN.Blu-ray.1080p.AVC.DTS-HD.MA5.1-MTeam 38.44G







    ◎译  名 A Chinese Ghost Story / 倩女幽魂(87版) / 倩女幽魂:妖魔道
    ◎片  名 倩女幽魂
    ◎年  代 1987
    ◎产  地 中国香港
    ◎类  别 爱情 / 奇幻 / 武侠 / 古装
    ◎语  言 粤语
    ◎上映日期 1987-07-18(中国香港) / 2011-04-30(中国大陆)
    ◎IMDb评分  7.5/10 from 8420 users
    ◎IMDb链接  https://www.imdb.com/title/tt0093978
    ◎豆瓣评分 8.7/10 from 507276 users
    ◎豆瓣链接 https://movie.douban.com/subject/1297447/
    ◎片  长 98分钟(香港)
    ◎导  演 程小东 Siu-Tung Ching
    ◎编  剧 阮继志 Kai-Chi Yun
    ◎主  演 张国荣 Leslie Cheung
            王祖贤 Joey Wong
            午马 Ma Wu
            刘兆铭 Lau Siu Ming
            林威 Wai Lam
            薛芷伦 Sit Chi Lun Fanny
            胡大为 David Wu
            王晶 Jing Wong

    ◎标  签 香港 | 经典 | 爱情 | 古装 | 魔幻 | 中国 | 奇幻 | 1987

    ◎简  介  
      书生宁采臣(张国荣饰)收账不成,无处可归,遂夜宿鬼寺兰若寺,遇上侠士燕赤霞(午马饰),二人成为邻居。一日偶遇艳女小倩(王祖贤饰),二人两情相悦,但小倩乃是被树妖姥姥控制的鬼魂,专门迷惑精壮男子代姥姥吸取阳气。小倩见宁采臣心地善良不忍加害,并与他感情逐渐加深。宁采臣欲救小倩脱离姥姥魔掌,但苦于姥姥功力深厚,小倩无法脱离其魔掌。二人遂向燕赤霞求救......

    ◎获奖情况  
      第24届台北金马影展(1987)
      金马奖 最佳剧情片(提名)
      金马奖 最佳男配角 午马
      金马奖 最佳改编剧本 阮继志
      金马奖 最佳美术设计(提名) 奚仲文
      金马奖 最佳造型设计 陈顾方
      金马奖 最佳原创配乐(提名) 戴乐民 / 黄霑
      金马奖 最佳原创歌曲(提名)
      金马奖 最佳剪辑
      第7届香港电影金像奖(1988)
      最佳电影(提名) 徐克
      最佳导演(提名) 程小东
      最佳女主角(提名) 王祖贤
      最佳男配角(提名) 午马
      最佳摄影(提名) 潘恒生 / 黄永恒 / 刘满棠 / 李嘉高
      最佳剪接(提名)
      最佳美术指导 奚仲文
      最佳动作设计(提名) 程小东 / 刘志豪 / 胡智龙 / 徐忠信 / 郭追
      最佳原创电影音乐 戴乐民 / 黄霑
      最佳原创电影歌曲 黄霑 / 叶倩文
      最佳原创电影歌曲(提名) 黄霑 / 张国荣 / 黄霑

    ◎幕后制作
      这是一部描述人鬼情的故事。编导借助古典文学的素材,表现了游魂聂小倩与书生宁采臣及道士燕赤霞的感情纠葛。影片赞扬了爱情与友谊,表达了扬善惩恶的美好愿望。亦鬼亦人的聂小倩、侠肝义胆的燕赤霞、心地善良的宁采臣,均给人留下了深刻的印象。影片充分利用各种电影手段,营造出一种奇幻迷离的艺术氛围。它获得第24届台湾电影金马奖最佳改编剧本、最佳男配角奖、最佳艺术设计、最佳剪辑四项奖;获第7届香港电影金像奖最佳美术指导、最佳音乐奖。
      “哥哥”成绝响 “小倩”余旧梦
      一部《倩女幽魂》有许多个故事供后人凭吊。它代表了徐克的黄金时代,天才的想像力和市场的口味难得相遇,徐记“电影工作室”就此成为一个品牌。它是资深武指程小东走上前台的一个照面,尽管程氏之前已经执导过《生死决》等电影,但是《倩女幽魂》让他的导演才华广为世人所知。不过最让人难忘的,当然是那一对靓人儿。当年小倩对宁采臣喊的一声“哥哥”言犹在耳,这个世界却已物是人非。张国荣走了,王祖贤退了,影迷的魂儿丢了。
      “拍古装电影,简直是找死啊”
      六十年代,徐克尚且是十几岁的少年郎,而且正痴迷于绘画,那时进入他视野的电影便包括一部名为《倩女幽魂》的电影,这部在当年被奉为经典的鬼片改编自清朝文人蒲松龄的《聊斋志异》,也是第一部进军戛纳的华语电影,导演是李翰祥。 8 K8 X9 ]) `5 Z- q
      二十年之后,徐克找邵氏公司借到这部多年来一直想重温的电影,发现还有极大的空间供其发掘。他找到自己早年导演剧集《金刀情侠》时认识的武术指导程小东,对他说:“现在的电影没有表现男女之间浪漫的感情剧,我们来拍一个爱情故事。”不过,老板一开始并不支持:“电视上古装片那么多了,观众都腻了,你还要拍古装电影,简直是找死啊!”徐克对他说:“这不是一个古装时装的问题,而是个心态问题,现在人们需要一种浪漫情感的东西,我觉得聊斋是一个可以好好利用的故事。”
      虽然在拍摄古龙小说改编的电视剧《金刀情侠》时,徐克还自称“当时一直处在一个思维很混乱的状态下,甚至还不知道武侠片需要武术指导。”但是,徐克所拍摄的这批武侠片已经体现出了他不拘一格的创作思想,他大胆、崭新的视觉营造,充满动感的影像与强烈的造型感,与胡金铨、张彻、张曾泽等导演的武侠片截然不同。
      赞美于鬼 鞭挞于人
      《倩女幽魂》系列共有三部,分别为《倩女幽魂》、《倩女幽魂2人间道》、《倩女幽魂3道道道》,同样是徐克电影工作室出品的《英雄本色》、《黄飞鸿》、《笑傲江湖》都是第一集成功后马上开拍续集,而《倩女幽魂》则是过了三年之后,才有拍续集的计划。
      无论是《新蜀山剑侠》还是《倩女幽魂》都描述了一种人间、鬼域、妖界纠葛混杂、难解难分的关系,但是在人鬼的对立和对比中,徐克赞美于鬼,鞭挞于人。
      三集《倩女幽魂》所处的时代都是朝政混乱、民生困苦的时代,人与人之间都是赤裸裸的利益关系,惟有几位主人公满怀理想、充满热情及正义感。但他们却反被人斥为不切实际、傻里傻气。当记者问及徐克在《倩女幽魂》系列中对人物的分析设计时,徐克说:“现实生活中存在一些不跟社会同流合污的人,他们常常被误会成不切实际,可是这些人是从另一个角度看世界,他们将来会对于整个历史的发展有作用。
      有评论说徐克构建的是一幅乱世图景,一种悲观情调,对此他的回答是:“我的影片的确多以动乱时代为背景,《倩女幽魂》也是如此,可能这是我自己作为海外文化工作者心结的外露,也可能和香港近年来处于不安的状态有关。”
      带动鬼片风潮
      徐克专长旧瓶装新酒,让没看过老片的新世代观众和看过旧版的老观众都能重新体验新世代导演的影像诠释手法。他运用当时最先进的电影特技,使得《倩女幽魂》从影片内容到形式都达到了极致。那时,《倩女幽魂》掀起了席卷东南亚、登陆日本的狂潮,日本人称徐克、程小东为“东方的乔治·卢卡斯和史蒂文·斯皮尔伯格”。
      《倩女幽魂》系列推出时,差不多已经是港片黄金年代的后期,大量的黑社会电影再也翻不出什么新意,《倩女幽魂》不仅创造了当年香港电影的票房神话,还掀起了一阵跟拍古装鬼片的风潮,不仅香港出现一堆武侠古装片,就连台湾也出现一些搞笑式的“倩女风格”作品,譬如《画中仙》、《射日》、《千年女妖》、《阴阳法王》等鬼片纷纷出笼。这些跟风之作无论在制作水准上,还是在票房成绩上都不能与《倩女幽魂》相提并论,但这种效应也多少延续了当时港片的辉煌。
      王祖贤———最大的受益者
      1987年以前的王祖贤,参演过钟镇涛导演的《杀妻二人组》、罗文导演的《义盖云天》,也在徐克导演的《打工皇帝》中出任过女主角,但这些电影过了两年就几乎无人知晓。
      一开始当王祖贤打电话自我推荐演小倩时,施南生(徐克的夫人、也是合作伙伴)以她不适合这个角色为由一口婉拒,但徐克和程小东还是找了王祖贤试妆,并当场拍板,使王祖贤由此一角走俏,成功地在港台娱乐圈打出了自己的一片天地,与张曼玉、钟楚红、关之琳并称90年代初香港影坛“四大名旦”。
      徐克与程小东一手打造了王祖贤的女鬼传奇,也让她几乎被女鬼的角色所桎梏,在此以后,王祖贤开始在更多的片子里饰演女鬼,依旧是害人———忏悔———得救的套路,但没有一部超过《倩女幽魂》。即使是胡金铨的告别之作《画皮》也终究因缺乏创意而沦于平庸,女鬼“小倩”大约自此成为绝响。

    ◎花絮
      黄霑自述影片配乐创作
      我一听到徐克搞《倩女幽魂》,马上自动献身。我看过李翰祥的《倩女幽魂》,而音乐合成器那些电子组合刚刚面世,做声音无懈可击,能试验很多特技声音,鬼片做得怎诡秘都可以。但徐克说小东找了人,半年后我再问,仍然说已找了人,如是者问了三次都给拒绝了。
      我喜欢做的事情就会求人家来让我做,几乎不要钱都愿意。据说那人写了歌,但他们全不喜欢,便来找我。我着他们理好和行家的纠葛,便开始写,很愉快。
      记得张国荣唱的主题曲《人生路》,便是那年随他们初次到戛纳时写的,写好旋律填过词便马上获通过。《道》是跟徐克在回程飞机上,两个醉汉边呷酒边写的,歌词也一并写好,回来后觉得太长,删了些。
      最初本想找林子祥唱,但他在美国,找不到,再想到找藩梅生,但他去了北京医治脚伤,没办法下惟有自己唱。

    1. DISC INFO:
    2. Disc Title:     Chinese ghost story - Blu-ray
    3. Disc Label:     A.Chinese.Ghost.Story.1987.HKG.Blu-ray.1080p.AVC.TrueHD7.1-HDRoad
    4. Disc Size:      22,884,824,452 bytes
    5. Protection:     AACS
    6. BDInfo:         0.7.5.5

    7. PLAYLIST REPORT:
    8. Name:                   00001.MPLS
    9. Length:                 1:35:38.023 (h:m:s.ms)
    10. Size:                   21,554,002,752 bytes
    11. Total Bitrate:          30.05 Mbps

    12. VIDEO:
    13. Codec                   Bitrate             Description     
    14. -----                   -------             -----------     
    15. MPEG-4 AVC Video        22976 kbps          1080p / 23.976 fps / 16:9 / High Profile 4.1

    16. AUDIO:
    17. Codec                           Language        Bitrate         Description     
    18. -----                           --------        -------         -----------     
    19. Dolby TrueHD Audio              Chinese         3140 kbps       7.1 / 48 kHz /  2500 kbps / 16-bit (AC3 Embedded: 5.1-EX / 48 kHz /   640 kbps / DN -31dB)
    20. Dolby Digital EX Audio          Chinese         640 kbps        5.1-EX / 48 kHz /   640 kbps / DN -31dB
    21. Dolby Digital EX Audio          Thai            640 kbps        5.1-EX / 48 kHz /   640 kbps / DN -31dB

    22. SUBTITLES:
    23. Codec                           Language        Bitrate         Description     
    24. -----                           --------        -------         -----------     
    25. Presentation Graphics           Chinese         33.465 kbps                     
    26. Presentation Graphics           English         26.129 kbps                     
    27. Presentation Graphics           Thai            27.258 kbps                     

    28. FILES:
    29. Name            Time In         Length          Size            Total Bitrate   
    30. ----            -------         ------          ----            -------------   
    31. 00003.M2TS      0:00:00.000     1:35:30.015     21,552,385,536  30,090         
    32. 00016.M2TS      1:35:30.015     0:00:01.000     216,384         1,660           
    33. 00015.M2TS      1:35:31.016     0:00:07.006     1,400,832       1,599
    复制代码
    1. DISC INFO:
    2. Disc Title:     Chinese ghost story - Blu-ray
    3. Disc Label:     A.Chinese.Ghost.Story.1987.HKG.Blu-ray.1080p.AVC.TrueHD7.1-DIY@TTG
    4. Disc Size:      25,185,218,659 bytes
    5. Protection:     AACS
    6. BDInfo:         0.7.5.5

    7. PLAYLIST REPORT:
    8. Name:                   00001.MPLS
    9. Length:                 1:35:45.156 (h:m:s.ms)
    10. Size:                   23,862,343,680 bytes
    11. Total Bitrate:          33.23 Mbps

    12. VIDEO:
    13. Codec                   Bitrate             Description     
    14. -----                   -------             -----------     
    15. MPEG-4 AVC Video        22951 kbps          1080p / 23.976 fps / 16:9 / High Profile 4.1

    16. AUDIO:
    17. Codec                           Language        Bitrate         Description     
    18. -----                           --------        -------         -----------     
    19. Dolby TrueHD Audio              Chinese         3138 kbps       7.1 / 48 kHz /  2498 kbps / 16-bit (AC3 Embedded: 5.1-EX / 48 kHz /   640 kbps / DN -31dB)
    20. Dolby Digital EX Audio          Chinese         640 kbps        5.1-EX / 48 kHz /   640 kbps / DN -31dB
    21. Dolby Digital EX Audio          Thai            640 kbps        5.1-EX / 48 kHz /   640 kbps / DN -31dB
    22. DTS-HD Master Audio             Chinese         2750 kbps       7.1 / 48 kHz /  2750 kbps / 16-bit (DTS Core: 5.1-ES / 48 kHz /  1509 kbps / 16-bit)

    23. SUBTITLES:
    24. Codec                           Language        Bitrate         Description     
    25. -----                           --------        -------         -----------     
    26. Presentation Graphics           Chinese         33.424 kbps                     
    27. Presentation Graphics           English         26.097 kbps                     
    28. Presentation Graphics           Thai            27.224 kbps                     
    29. Presentation Graphics           Chinese         25.238 kbps                     
    30. Presentation Graphics           Chinese         25.912 kbps                     
    31. Presentation Graphics           Chinese         27.126 kbps                     

    32. FILES:
    33. Name            Time In         Length          Size            Total Bitrate   
    34. ----            -------         ------          ----            -------------   
    35. 00003.M2TS      0:00:00.000     1:35:45.156     23,862,343,680  33,228
    复制代码
    1. DISC INFO:
    2. Disc Label:     A.Chinese.Ghost.Story.1987.CHN.Blu-ray.1080p.AVC.DTS-HD.MA5.1-MTeam
    3. Disc Size:      41,278,128,197 bytes
    4. Protection:     AACS
    5. BDInfo:         0.7.5.5

    6. PLAYLIST REPORT:
    7. Name:                   00007.MPLS
    8. Length:                 1:36:10.264 (h:m:s.ms)
    9. Size:                   27,050,158,080 bytes
    10. Total Bitrate:          37.50 Mbps

    11. VIDEO:
    12. Codec                   Bitrate             Description     
    13. -----                   -------             -----------     
    14. MPEG-4 AVC Video        30000 kbps          1080p / 23.976 fps / 16:9 / High Profile 4.1

    15. AUDIO:
    16. Codec                           Language        Bitrate         Description     
    17. -----                           --------        -------         -----------     
    18. DTS-HD Master Audio             Chinese         2287 kbps       5.1 / 48 kHz /  2287 kbps / 16-bit (DTS Core: 5.1 / 48 kHz /  1509 kbps / 16-bit)
    19. Dolby Digital Audio             Chinese         640 kbps        5.1 / 48 kHz /   640 kbps / DN -31dB
    20. LPCM Audio                      Chinese         1536 kbps       2.0 / 48 kHz /  1536 kbps / 16-bit
    21. Dolby Digital Audio             English         640 kbps        2.0 / 48 kHz /   640 kbps / DN -31dB

    22. SUBTITLES:
    23. Codec                           Language        Bitrate         Description     
    24. -----                           --------        -------         -----------     
    25. Presentation Graphics           Chinese         23.787 kbps                     
    26. Presentation Graphics           Chinese         24.554 kbps                     
    27. Presentation Graphics           English         26.174 kbps                     
    28. Presentation Graphics           Chinese         64.306 kbps                     

    29. FILES:
    30. Name            Time In         Length          Size            Total Bitrate   
    31. ----            -------         ------          ----            -------------   
    32. 00005.M2TS      0:00:00.000     1:36:10.264     27,050,158,080  37,503
    复制代码

    eD2K + 115 Share
    游客,如果您要查看本帖隐藏内容请回复

    本帖子中包含更多资源

    您需要 登录 才可以下载或查看,没有帐号?立即注册

    x

    评分

    参与人数 1金钱 +100 收起 理由
    罗捷 + 100 赞一个!

    查看全部评分

    回复

    使用道具 举报

  • TA的每日心情
    开心
    昨天 18:02
  • 签到天数: 48 天

    连续签到: 1 天

    [LV.5]常住居民I

    发表于 2020-5-29 11:58:04 | 显示全部楼层
    看到这帖子真是高兴!
    回复 支持 反对

    使用道具 举报

  • TA的每日心情
    开心
    2020-7-27 09:34
  • 签到天数: 33 天

    连续签到: 1 天

    [LV.5]常住居民I

    发表于 2020-5-29 15:37:21 | 显示全部楼层

    看到这帖子真是高兴!
    回复 支持 反对

    使用道具 举报

  • TA的每日心情
    开心
    2020-5-29 16:17
  • 签到天数: 1 天

    连续签到: 1 天

    [LV.1]初来乍到

    发表于 2020-5-29 16:23:36 | 显示全部楼层
    看到这帖子真是高兴!
    回复 支持 反对

    使用道具 举报

  • TA的每日心情
    无聊
    昨天 17:29
  • 签到天数: 78 天

    连续签到: 52 天

    [LV.6]常住居民II

    发表于 2020-5-29 18:30:29 | 显示全部楼层
    谢谢分享了
    回复 支持 反对

    使用道具 举报

     成长值: 3225

  • TA的每日心情
    开心
    2020-6-26 15:30
  • 签到天数: 43 天

    连续签到: 1 天

    [LV.5]常住居民I

    发表于 2020-5-29 18:48:16 | 显示全部楼层
    强烈支持楼主ing……
    回复 支持 反对

    使用道具 举报

  • TA的每日心情

    2020-7-20 14:42
  • 签到天数: 35 天

    连续签到: 1 天

    [LV.5]常住居民I

    发表于 2020-5-29 19:41:31 | 显示全部楼层
    强烈支持楼主ing……
    回复 支持 反对

    使用道具 举报

  • TA的每日心情
    奋斗
    昨天 02:05
  • 签到天数: 180 天

    连续签到: 4 天

    [LV.7]常住居民III

    发表于 2020-5-30 00:05:54 | 显示全部楼层
    感恩无私的分享与奉献
    回复 支持 反对

    使用道具 举报

  • TA的每日心情
    开心
    昨天 07:10
  • 签到天数: 84 天

    连续签到: 27 天

    [LV.6]常住居民II

    发表于 2020-5-30 06:11:32 | 显示全部楼层
    强烈支持楼主ing……
    回复 支持 反对

    使用道具 举报

  • TA的每日心情
    奋斗
    2020-7-26 08:39
  • 签到天数: 44 天

    连续签到: 3 天

    [LV.5]常住居民I

    发表于 2020-5-30 07:45:40 | 显示全部楼层
    看到这帖子真是高兴!
    回复 支持 反对

    使用道具 举报

    您需要登录后才可以回帖 登录 | 立即注册

    本版积分规则

    QQ|Archiver|手机版|小黑屋|蓝光原盘信息网 ( 粤ICP备19078645号-2 )

    GMT+8, 2020-8-9 01:02 , Processed in 0.181721 second(s), 28 queries .

    Powered by Discuz! X3.4

    Copyright © 2001-2020, Tencent Cloud.

    快速回复 返回顶部 返回列表