蓝光原盘信息网

 找回密码
 立即注册
 
查看: 738|回复: 19

[英语版] 例外.The.Exception.2016.BluRay.1080p.AVC.DTS-HD.MA.5.1-bb@HDSky 21.62G

[复制链接]
  • TA的每日心情
    奋斗
    2020-3-10 02:48
  • 签到天数: 14 天

    连续签到: 1 天

    [LV.3]偶尔看看II

    发表于 2019-9-30 00:00:39 | 显示全部楼层 |阅读模式
    例外.The.Exception.2016.BluRay.1080p.AVC.DTS-HD.MA.5.1-bb@HDSky 21.62G
    原盘来自MTeam, 字幕来自字幕库, 在此表示感谢,
    字幕为追加方式,主菜单未作修改,通过播放正片时右键调用
    **此原盘是狮门多段肉酱盘,現已合成单一文件**
    TMT6/ PD13/ 亿格瑞A10播放测试正常
    “战争罗曼题材,灰姑娘莉莉全裸激情”




    ◎译  名 例外 / The Kaiser's Last Kiss
    ◎片  名 The Exception
    ◎年  代 2016
    ◎产  地 英国 / 美国
    ◎类  别 剧情 / 爱情 / 战争
    ◎语  言 英语
    ◎上映日期 2016-09-12(多伦多电影节) / 2017-06-02(美国)
    ◎IMDb评分  6.8/10 from 8839 users
    ◎IMDb链接  http://www.imdb.com/title/tt4721124
    ◎豆瓣评分 6.8/10 from 1170 users
    ◎豆瓣链接 https://movie.douban.com/subject/26417545/
    ◎片  长 107分钟
    ◎导  演 大卫·莱维奥 David Leveaux
    ◎编  剧 西蒙·伯克 Simon Burke / 艾伦·贾德 Alan Judd
    ◎主  演 莉莉·詹姆斯 Lily James
           克里斯托弗·普卢默 Christopher Plummer
           珍妮·麦克蒂尔 Janet McTeer
           杰·科特尼 Jai Courtney
           安东·莱瑟 Anton Lesser
           本·丹尼尔斯 Ben Daniels
           马丁·斯威比 Martin Swabey
           马丁·萨维奇 Martin Savage
           马克·德克斯特 Mark Dexter
           克里斯·库彭斯 Kris Cuppens
           埃迪·马森 Eddie Marsan

    ◎标  签 二战 | 爱情 | 战争 | 英国 | 莉莉·詹姆斯 | 人性 | 英国电影 | 2016
    ◎简  介  
      在二战初期,一位德国军官试图查出荷兰抵抗组织是否派了一名间谍打入威廉二世皇帝在荷兰的公馆中,但他却在调查过程中爱上了一位年轻的犹太人荷兰女子。













    1. DISC INFO:

    2. Disc Title:     The Exception - Blu-ray™
    3. Disc Label:     The.Exception.2016.BluRay.1080p.AVC.DTS-HD.MA.5.1-bb@HDSky
    4. Disc Size:      23,205,726,137 bytes
    5. Protection:     AACS
    6. Extras:         BD-Java
    7. BDInfo:         0.7.5.5

    8. PLAYLIST REPORT:
    9. Name:                   00426.MPLS
    10. Length:                 1:48:30.545 (h:m:s.ms)
    11. Size:                   62,865,408 bytes
    12. Total Bitrate:          0.08 Mbps

    13. VIDEO:
    14. Codec                   Bitrate             Description     
    15. -----                   -------             -----------     
    16. MPEG-4 AVC Video        1093 kbps           1080p / 23.976 fps / 16:9 / High Profile 4.0

    17. AUDIO:
    18. Codec                           Language        Bitrate         Description     
    19. -----                           --------        -------         -----------     
    20. DTS-HD Master Audio             English         0 kbps          5.1 / 48 kHz   
    21. Dolby Digital Audio             English         0 kbps          2.0 / 48 kHz   

    22. SUBTITLES:
    23. Codec                           Language        Bitrate         Description     
    24. -----                           --------        -------         -----------     
    25. Presentation Graphics           English         0.002 kbps                     
    26. Presentation Graphics           Chinese         0.000 kbps                     
    27. Presentation Graphics           Chinese         0.000 kbps                     
    28. Presentation Graphics           Chinese         0.000 kbps                     
    29. Presentation Graphics           Chinese         0.000 kbps                     
    30. Presentation Graphics           Spanish         0.002 kbps                     

    31. FILES:
    32. Name            Time In         Length          Size            Total Bitrate   
    33. ----            -------         ------          ----            -------------   
    34. 00519.M2TS      0:00:00.000     0:09:12.301     325,632         261            
    35. 03115.M2TS      0:09:12.301     0:01:00.060     56,352,768      7,506           
    36. 00516.M2TS      0:10:12.361     0:30:02.091     325,632         261            
    37. 00508.M2TS      0:40:14.453     0:00:22.731     325,632         261            
    38. 00502.M2TS      0:40:37.184     0:08:38.100     325,632         261            
    39. 00506.M2TS      0:49:15.285     0:27:56.049     325,632         261            
    40. 00507.M2TS      1:17:11.334     0:00:25.316     325,632         261            
    41. 00503.M2TS      1:17:36.651     0:00:45.545     325,632         261            
    42. 00520.M2TS      1:18:22.197     0:16:51.552     325,632         261            
    43. 00505.M2TS      1:35:13.749     0:01:24.834     325,632         261            
    44. 00515.M2TS      1:36:38.584     0:00:57.557     325,632         261            
    45. 00518.M2TS      1:37:36.141     0:00:20.395     325,632         261            
    46. 00511.M2TS      1:37:56.537     0:00:39.039     325,632         261            
    47. 00512.M2TS      1:38:35.576     0:03:36.674     325,632         261            
    48. 00513.M2TS      1:42:12.250     0:01:11.488     325,632         261            
    49. 00517.M2TS      1:43:23.739     0:01:21.414     325,632         261            
    50. 00504.M2TS      1:44:45.153     0:00:44.544     325,632         261            
    51. 00509.M2TS      1:45:29.698     0:00:45.879     325,632         261            
    52. 00501.M2TS      1:46:15.577     0:00:23.023     325,632         261            
    53. 00510.M2TS      1:46:38.600     0:00:44.210     325,632         261            
    54. 00514.M2TS      1:47:22.811     0:01:07.734     325,632         261            
    复制代码

    ED2K连接
    游客,如果您要查看本帖隐藏内容请回复

    本帖子中包含更多资源

    您需要 登录 才可以下载或查看,没有帐号?立即注册

    x
    回复

    使用道具 举报

     成长值: 4440

  • TA的每日心情
    开心
    1 小时前
  • 签到天数: 254 天

    连续签到: 219 天

    [LV.8]以坛为家I

    发表于 2019-11-30 00:24:46 | 显示全部楼层
    强烈支持楼主ing……
    回复 支持 反对

    使用道具 举报

     成长值: 4440

  • TA的每日心情
    开心
    1 小时前
  • 签到天数: 254 天

    连续签到: 219 天

    [LV.8]以坛为家I

    发表于 2019-12-8 12:25:37 | 显示全部楼层
    强烈支持楼主ing……
    回复 支持 反对

    使用道具 举报

  • TA的每日心情
    无聊
    2020-5-13 08:08
  • 签到天数: 38 天

    连续签到: 1 天

    [LV.5]常住居民I

    发表于 2020-1-22 15:46:24 | 显示全部楼层
    感恩无私的分享与奉献
    回复 支持 反对

    使用道具 举报

     成长值: 4440

  • TA的每日心情
    开心
    1 小时前
  • 签到天数: 254 天

    连续签到: 219 天

    [LV.8]以坛为家I

    发表于 2020-1-25 11:08:53 | 显示全部楼层
    强烈支持楼主ing……
    回复 支持 反对

    使用道具 举报

     成长值: 4680

  • TA的每日心情
    开心
    昨天 07:40
  • 签到天数: 195 天

    连续签到: 195 天

    [LV.7]常住居民III

    发表于 2020-1-30 22:01:25 | 显示全部楼层
    强烈支持楼主ing……
    回复 支持 反对

    使用道具 举报

  • TA的每日心情
    擦汗
    2020-5-13 19:10
  • 签到天数: 11 天

    连续签到: 1 天

    [LV.3]偶尔看看II

    发表于 2020-2-3 16:47:23 | 显示全部楼层
    真是难得给力的帖子啊。
    回复 支持 反对

    使用道具 举报

  • TA的每日心情
    开心
    2020-2-15 10:43
  • 签到天数: 62 天

    连续签到: 22 天

    [LV.6]常住居民II

    发表于 2020-2-3 20:26:52 | 显示全部楼层
    强烈支持楼主ing……
    回复 支持 反对

    使用道具 举报

  • TA的每日心情
    开心
    2020-2-15 10:45
  • 签到天数: 71 天

    连续签到: 2 天

    [LV.6]常住居民II

    发表于 2020-2-3 20:29:04 | 显示全部楼层
    强烈支持楼主ing……
    回复 支持 反对

    使用道具 举报

  • TA的每日心情
    开心
    2020-2-15 10:43
  • 签到天数: 62 天

    连续签到: 22 天

    [LV.6]常住居民II

    发表于 2020-2-13 18:38:50 | 显示全部楼层
    强烈支持楼主ing……
    回复 支持 反对

    使用道具 举报

    您需要登录后才可以回帖 登录 | 立即注册

    本版积分规则

    QQ|Archiver|手机版|小黑屋|蓝光原盘信息网 ( 粤ICP备19078645号-2 )

    GMT+8, 2020-8-9 02:06 , Processed in 0.165993 second(s), 24 queries .

    Powered by Discuz! X3.4

    Copyright © 2001-2020, Tencent Cloud.

    快速回复 返回顶部 返回列表