蓝光原盘信息网

 找回密码
 立即注册
 
查看: 56|回复: 7

[国语版] 金刚.King.Kong.2005.EUR.2in1.Blu-ray.UHD.2160p.HEVC.DTS-HD.MA7.1-FiNalHD@HDSky

[复制链接]
  • TA的每日心情
    奋斗
    2020-3-10 02:48
  • 签到天数: 14 天

    连续签到: 1 天

    [LV.3]偶尔看看II

    发表于 2020-3-11 09:00:42 | 显示全部楼层 |阅读模式
    金刚.King.Kong.2005.EUR.2in1.Blu-ray.UHD.2160p.HEVC.DTS-HD.MA7.1-FiNalHD@HDSky 90.29G







    ◎译  名 金刚 / King Kong: The Eighth Wonder of the World
    ◎片  名 King Kong
    ◎年  代 2005
    ◎产  地 新西兰 / 美国 / 德国
    ◎类  别 动作 / 奇幻 / 冒险
    ◎语  言 英语
    ◎上映日期 2005-12-05(纽约首映) / 2005-12-14(美国) / 2006-01-12(中国大陆)
    ◎IMDb评分  7.2/10 from 377398 users
    ◎IMDb链接  https://www.imdb.com/title/tt0360717
    ◎豆瓣评分 7.9/10 from 241980 users
    ◎豆瓣链接 https://movie.douban.com/subject/1309043/
    ◎片  长 187分钟
    ◎导  演 彼得·杰克逊 Peter Jackson
    ◎编  剧 弗兰·威尔士 Fran Walsh / 菲利帕·鲍恩斯 Philippa Boyens / 彼得·杰克逊 Peter Jackson / 梅里安·C·库珀 Merian C. Cooper / 埃德加·华莱士 Edgar Wallace
    ◎主  演 娜奥米·沃茨 Naomi Watts
            杰克·布莱克 Jack Black
            艾德里安·布洛迪 Adrien Brody
            托马斯·克莱舒曼 Thomas Kretschmann
            科林·汉克斯 Colin Hanks
            安迪·瑟金斯 Andy Serkis
            伊万·帕克 Evan Parke
            杰米·贝尔 Jamie Bell
            洛博·陈 Lobo Chan
            约翰·萨莫尔 John Sumner
            克里格·霍尔 Craig Hall
            凯尔·钱德勒 Kyle Chandler
            威廉·约翰逊 William Johnson
            马克·哈德洛 Mark Hadlow
            杰拉丁·博若飞 Geraldine Brophy
            大卫·皮图 David Pittu

    ◎标  签 科幻 | 美国 | 金刚 | 爱情 | 经典 | 魔幻 | 电影 | 2005

    ◎简  介  
      导演率领拍摄组来到神秘的骷髅岛开始了一部电影的拍摄,女主角是漂亮娇小的安(娜奥米•沃茨 Naomi Watts 饰),她在纽约的演艺事业陷入了低谷,这是她时来运转的大好机会。他们乘坐轮船来到岛上,却不知在岛上即将要险象横生。
      正当导演要开始开机拍摄时,他们遭到了当地土著的袭击,几个随行人员遇难身亡。摄制组慌忙逃离,幸好起航离去,却发现不见了女主角安。
      原来安土著野人抓走,被当作祭品。安尖声惊叫,引来了传说中骷髅岛的猩猩——金刚的关注。金刚在岛上很有霸气,连恐龙都要忌它几分。然而,野兽爱上了美人,金刚搭救安脱离困境,不料却让自己陷入了一场悲剧。

    ◎获奖情况  
      第78届奥斯卡金像奖(2006)
      最佳视觉效果 乔·莱特瑞 / 布莱恩·范特·赫尔 / 克里斯蒂安·瑞沃斯 / 理查德·泰勒
      最佳混音 克里斯托弗·博伊斯 / 迈克尔·斯曼内科 / 迈克·亨吉斯 / 哈蒙德·匹克
      最佳音效剪辑 伊桑·范德莱恩 / 迈克·霍普金斯
      最佳艺术指导(提名) 西蒙·布赖特 / 格兰特·梅杰 / 丹·汉纳
      第63届金球奖(2006)
      电影类 最佳导演(提名) 彼得·杰克逊
      电影类 最佳原创配乐(提名) 詹姆斯·纽顿·霍华德
      第59届英国电影学院奖(2006)
      电影奖 最佳艺术指导(提名) 格兰特·梅杰
      电影奖 最佳特殊视觉效果 克里斯蒂安·瑞沃斯 / 布莱恩·范特·赫尔 / 理查德·泰勒 / 乔·莱特瑞
      电影奖 最佳音效(提名) 哈蒙德·匹克 / 迈克·霍普金斯 / 伊桑·范德莱恩 / 克里斯托弗·博伊斯
      第15届MTV电影奖(2006)
      MTV电影奖 年度电影(提名)
      MTV电影奖 最佳打斗(提名)
      第12届中国电影华表奖(2007)
      优秀译制片奖(提名)
      第6届美国电影学会奖(2005)
      年度佳片

    1. DISC INFO:
    2. Disc Title:     King Kong 加长版
    3. Disc Label:     King Kong
    4. Disc Size:      96,947,554,847 bytes
    5. Protection:     AACS2
    6. Extras:         Ultra HD, BD-Java
    7. BDInfo:         0.7.5.5

    8. PLAYLIST REPORT:
    9. Name:                   00801.MPLS
    10. Length:                 3:20:08.871 (h:m:s.ms)
    11. Size:                   94,223,078,016 bytes
    12. Total Bitrate:          62.77 Mbps

    13. VIDEO:
    14. Codec                   Bitrate             Description     
    15. -----                   -------             -----------     
    16. MPEG-H HEVC Video       46142 kbps          2160p / 23.976 fps / 16:9 / Main 10 @ Level 5.1 @ High / 10 bits / HDR10 / BT.2020

    17. AUDIO:
    18. Codec                           Language        Bitrate         Description     
    19. -----                           --------        -------         -----------     
    20. DTS:X Master Audio              English         7412 kbps       7.1 / 48 kHz /  7412 kbps / 24-bit (DTS Core: 5.1 / 48 kHz /  1509 kbps / 24-bit)
    21. Dolby TrueHD Audio              Chinese         2258 kbps       5.1 / 48 kHz /  1618 kbps / 16-bit (AC3 Embedded: 5.1 / 48 kHz /   640 kbps / DN -31dB)
    22. Dolby Digital Audio             Chinese         640 kbps        5.1 / 48 kHz /   640 kbps / DN -31dB
    23. DTS Audio                       Czech           768 kbps        5.1 / 48 kHz /   768 kbps / 24-bit
    24. DTS Audio                       Polish          768 kbps        5.1 / 48 kHz /   768 kbps / 24-bit
    25. Dolby Digital Audio             English         192 kbps        2.0 / 48 kHz /   192 kbps / DN -27dB / Dolby Surround

    26. SUBTITLES:
    27. Codec                           Language        Bitrate         Description     
    28. -----                           --------        -------         -----------     
    29. Presentation Graphics           English         20.572 kbps                     
    30. Presentation Graphics           Chinese         32.091 kbps                     
    31. Presentation Graphics           Chinese         33.080 kbps                     
    32. Presentation Graphics           Chinese         43.564 kbps                     
    33. Presentation Graphics           Chinese         44.616 kbps                     
    34. Presentation Graphics           Chinese         24.996 kbps                     
    35. Presentation Graphics           Swedish         14.351 kbps                     
    36. Presentation Graphics           Czech           14.430 kbps                     
    37. Presentation Graphics           Polish          14.427 kbps                     
    38. Presentation Graphics           Chinese         11.443 kbps                     
    39. Presentation Graphics           Greek           16.124 kbps                     
    40. Presentation Graphics           English         79.920 kbps                     
    41. Presentation Graphics           French          65.305 kbps                     
    42. Presentation Graphics           French          0.398 kbps                     
    43. Presentation Graphics           Czech           1.006 kbps                     
    44. Presentation Graphics           Polish          0.606 kbps                     

    45. FILES:
    46. Name            Time In         Length          Size            Total Bitrate   
    47. ----            -------         ------          ----            -------------   
    48. 00011.M2TS      0:00:00.000     1:13:58.767     35,106,940,608  63,272         
    49. 00105.M2TS      1:13:58.767     0:02:59.178     1,421,162,496   63,423         
    50. 00083.M2TS      1:16:57.946     0:14:11.433     6,647,939,520   62,457         
    51. 00106.M2TS      1:31:09.380     0:00:49.799     383,232,768     61,461         
    52. 00090.M2TS      1:31:59.180     0:06:03.362     2,772,822,912   61,034         
    53. 00107.M2TS      1:38:02.543     0:08:41.312     4,122,339,648   63,251         
    54. 00092.M2TS      1:46:43.855     0:20:30.646     10,275,772,224  66,795         
    55. 00108.M2TS      2:07:14.501     0:02:03.623     958,346,304     61,975         
    56. 00097.M2TS      2:09:18.125     0:15:40.856     6,104,980,032   51,905         
    57. 00109.M2TS      2:24:58.981     0:00:48.923     394,161,408     64,343         
    58. 00100.M2TS      2:25:47.905     0:20:22.971     11,006,730,240  71,995         
    59. 00110.M2TS      2:46:10.877     0:00:21.771     176,922,816     64,762         
    60. 00102.M2TS      2:46:32.649     0:05:56.022     2,423,511,360   54,445         
    61. 00111.M2TS      2:52:28.671     0:00:46.004     370,438,464     64,301         
    62. 00104.M2TS      2:53:14.675     0:26:54.195     12,057,777,216  59,756
    复制代码
    1. DISC INFO:
    2. Disc Title:     King Kong
    3. Disc Label:     King Kong
    4. Disc Size:      96,947,554,847 bytes
    5. Protection:     AACS2
    6. Extras:         Ultra HD, BD-Java
    7. BDInfo:         0.7.5.5

    8. PLAYLIST REPORT:
    9. Name:                   00001.MPLS
    10. Length:                 3:07:16.808 (h:m:s.ms)
    11. Size:                   87,970,435,584 bytes
    12. Total Bitrate:          62.63 Mbps

    13. (*) Indicates included stream hidden by this playlist.

    14. VIDEO:
    15. Codec                   Bitrate             Description     
    16. -----                   -------             -----------     
    17. MPEG-H HEVC Video       46119 kbps          2160p / 23.976 fps / 16:9 / Main 10 @ Level 5.1 @ High / 10 bits / HDR10 / BT.2020

    18. AUDIO:
    19. Codec                           Language        Bitrate         Description     
    20. -----                           --------        -------         -----------     
    21. DTS:X Master Audio              English         7374 kbps       7.1 / 48 kHz /  7374 kbps / 24-bit (DTS Core: 5.1 / 48 kHz /  1509 kbps / 24-bit)
    22. Dolby TrueHD Audio              Chinese         2202 kbps       5.1 / 48 kHz /  1562 kbps / 16-bit (AC3 Embedded: 5.1 / 48 kHz /   640 kbps / DN -31dB)
    23. Dolby Digital Audio             Chinese         640 kbps        5.1 / 48 kHz /   640 kbps / DN -31dB
    24. DTS Audio                       Czech           768 kbps        5.1 / 48 kHz /   768 kbps / 24-bit
    25. DTS Audio                       Polish          768 kbps        5.1 / 48 kHz /   768 kbps / 24-bit
    26. * Dolby Digital Audio           English         192 kbps        2.0 / 48 kHz /   192 kbps / DN -27dB / Dolby Surround

    27. SUBTITLES:
    28. Codec                           Language        Bitrate         Description     
    29. -----                           --------        -------         -----------     
    30. Presentation Graphics           English         20.874 kbps                     
    31. Presentation Graphics           Chinese         33.979 kbps                     
    32. Presentation Graphics           Chinese         34.962 kbps                     
    33. Presentation Graphics           Chinese         45.646 kbps                     
    34. Presentation Graphics           Chinese         46.706 kbps                     
    35. Presentation Graphics           Chinese         27.006 kbps                     
    36. Presentation Graphics           Swedish         14.626 kbps                     
    37. Presentation Graphics           Czech           14.776 kbps                     
    38. Presentation Graphics           Polish          14.834 kbps                     
    39. Presentation Graphics           Chinese         11.634 kbps                     
    40. Presentation Graphics           Greek           16.401 kbps                     
    41. * Presentation Graphics         English         80.162 kbps                     
    42. * Presentation Graphics         French          65.581 kbps                     
    43. Presentation Graphics           French          0.426 kbps                     
    44. Presentation Graphics           Czech           0.429 kbps                     
    45. Presentation Graphics           Polish          0.001 kbps                     

    46. FILES:
    47. Name            Time In         Length          Size            Total Bitrate   
    48. ----            -------         ------          ----            -------------   
    49. 00011.M2TS      0:00:00.000     1:13:58.767     35,106,940,608  63,272         
    50. 00017.M2TS      1:13:58.767     0:00:29.028     182,031,552     50,022         
    51. 00083.M2TS      1:14:27.796     0:14:11.433     6,647,939,520   62,457         
    52. 00081.M2TS      1:28:39.230     0:00:37.662     316,359,552     67,050         
    53. 00090.M2TS      1:29:16.893     0:06:03.363     2,772,822,912   61,034         
    54. 00091.M2TS      1:35:20.256     0:01:18.703     495,950,592     50,359         
    55. 00092.M2TS      1:36:38.959     0:20:30.646     10,275,772,224  66,795         
    56. 00095.M2TS      1:57:09.605     0:00:19.185     110,592,768     45,915         
    57. 00097.M2TS      1:57:28.791     0:15:40.856     6,104,980,032   51,905         
    58. 00099.M2TS      2:13:09.648     0:00:27.485     233,673,216     67,807         
    59. 00100.M2TS      2:13:37.134     0:20:22.971     11,006,730,240  71,995         
    60. 00101.M2TS      2:34:00.105     0:00:16.349     153,340,032     74,649         
    61. 00102.M2TS      2:34:16.455     0:05:56.022     2,423,511,360   54,445         
    62. 00103.M2TS      2:40:12.477     0:00:10.135     82,013,760      64,208         
    63. 00104.M2TS      2:40:22.612     0:26:54.195     12,057,777,216  59,756
    复制代码

    eD2K Link
    游客,如果您要查看本帖隐藏内容请回复

    本帖子中包含更多资源

    您需要 登录 才可以下载或查看,没有帐号?立即注册

    x
    回复

    使用道具 举报

     成长值: 2595

  • TA的每日心情
    开心
    8 小时前
  • 签到天数: 131 天

    连续签到: 96 天

    [LV.7]常住居民III

    发表于 2020-3-11 09:17:44 | 显示全部楼层
    强烈支持楼主ing……
    回复 支持 反对

    使用道具 举报

  • TA的每日心情
    擦汗
    昨天 23:22
  • 签到天数: 100 天

    连续签到: 5 天

    [LV.6]常住居民II

    发表于 2020-3-11 10:17:16 | 显示全部楼层
    之前下了REMUX视频带国语中字的,以为是CMCT的作品,原来是HDSky的啊!
    回复 支持 反对

    使用道具 举报

  • TA的每日心情
    慵懒
    昨天 09:27
  • 签到天数: 65 天

    连续签到: 65 天

    [LV.6]常住居民II

    发表于 2020-3-13 07:34:06 | 显示全部楼层
    强烈支持楼主ing……
    回复 支持 反对

    使用道具 举报

  • TA的每日心情
    擦汗
    9 小时前
  • 签到天数: 88 天

    连续签到: 76 天

    [LV.6]常住居民II

    发表于 2020-3-13 10:38:54 | 显示全部楼层
    谢谢楼主分享精彩影片
    回复 支持 反对

    使用道具 举报

  • TA的每日心情
    开心
    半小时前
  • 签到天数: 84 天

    连续签到: 38 天

    [LV.6]常住居民II

    发表于 2020-3-14 10:58:31 | 显示全部楼层
    看到这帖子真是高兴!
    回复 支持 反对

    使用道具 举报

  • TA的每日心情

    4 分钟前
  • 签到天数: 37 天

    连续签到: 3 天

    [LV.5]常住居民I

    发表于 2020-3-30 09:43:42 | 显示全部楼层
    强烈支持楼主ing……
    回复 支持 反对

    使用道具 举报

  • TA的每日心情
    慵懒
    昨天 09:27
  • 签到天数: 65 天

    连续签到: 65 天

    [LV.6]常住居民II

    发表于 3 天前 | 显示全部楼层
    强烈支持楼主ing……
    回复 支持 反对

    使用道具 举报

    您需要登录后才可以回帖 登录 | 立即注册

    本版积分规则

    QQ|Archiver|手机版|小黑屋|蓝光原盘信息网 ( 粤ICP备19078645号-2 )

    GMT+8, 2020-4-8 09:09 , Processed in 0.157895 second(s), 25 queries .

    Powered by Discuz! X3.4

    Copyright © 2001-2020, Tencent Cloud.

    快速回复 返回顶部 返回列表